#TITLE:Kembali Senyum;
#SUBTITLE:;
#ARTIST:Izwan Pilus;
#TITLETRANSLIT:;
#SUBTITLETRANSLIT:;
#ARTISTTRANSLIT:;
#CREDIT:;
#BANNER:KembaliSenyum_logo.jpg;
#BACKGROUND:KembaliSenyum_bg.jpg;
#LYRICSPATH:;
#CDTITLE:Lan.png;
#MUSIC:Kembali Senyum.mp3;
#OFFSET:-0.040;
#SAMPLESTART:100.000;
#SAMPLELENGTH:12.000;
#SELECTABLE:YES;
#BPMS:0.000=105.900;
#STOPS:;
#BGCHANGES:;
// cache tags:
#FIRSTBEAT:3.000;
#LASTBEAT:272.000;
#SONGFILENAME:Songs/lan sky/Kembali Senyum/Kembali Senyum.sm;
#HASMUSIC:1;
#HASBANNER:1;
#MUSICLENGTH:156.218;
// end cache tags

//---------------dance-single - sky----------------
#NOTES:
     dance-single:
     sky:
     Hard:
     7:
     0.524,0.609,0.775,0.128,0.099,432.000,121.000,20.000,0.000,2.000:

0000
0000
0000
0000
0000
0000
0000
0000
0000
0000
0000
0000
1000
0100
0010
0001
,
1000
0000
0100
0000
0010
0000
0100
0000
0000
0000
0000
0000
0000
0000
0001
0001
,
0010
0100
1000
1000
0000
0100
0010
0001
,
0000
1000
0100
0010
0000
0001
0010
0100
,
0100
0000
0010
0000
0001
0000
0010
0000
0100
0000
1000
0000
0100
0010
0001
0010
,
1001
0010
0100
1010
0000
0100
0100
0001
,
0110
0000
1000
0000
0001
0000
1100
0000
0000
0000
0000
0000
0000
0000
0100
0100
,
0011
1000
0100
1010
0000
0100
0010
0001
,
1100
0000
0000
0110
0002
0000
0000
0000
,
0110
0000
0000
1100
0003
0000
0000
0000
,
0011
0000
0000
1001
0000
1000
0012
0000
,
1000
0100
0010
1000
0010
1000
0010
1000
,
0100
1000
1000
0010
0100
0010
1000
0103
,
1010
0100
1001
1010
0001
0100
1001
1010
,
0110
1000
0101
1100
0001
0110
1100
0001
,
1010
0100
0011
1010
0001
0100
0011
1010
,
1001
0100
0011
1001
0100
1001
0011
0100
,
0001
0000
0001
1010
0000
0000
1000
1000
,
0110
1000
1100
0001
0010
0001
1010
0000
,
1020
0100
1000
0001
0001
0100
1000
0100
,
0100
0001
0100
0001
1000
0100
1000
0031
,
1010
1000
1001
0110
0100
0010
0110
1010
,
0101
0100
1100
0011
0010
1001
0101
0001
,
1010
0010
0110
1001
0001
1000
1001
1010
,
0100
0000
0011
1000
0000
1000
0011
0000
,
0010
0100
0001
1010
0010
0100
0001
1010
,
0100
1000
0001
1000
0001
0100
1001
0010
,
1100
0000
0010
1000
0100
0000
0010
0001
,
1100
0000
0000
0110
0000
0000
0011
0000
0000
0000
0100
0000
0010
0000
0100
0000
,
0000
1000
0000
0000
0001
0000
0100
0000
1000
0000
0001
0000
0010
0000
0100
0000
,
0110
0000
0000
1001
0000
0000
0101
0000
0000
0000
0000
0000
0100
0000
0010
0000
,
1001
0001
0010
0100
1000
1000
0010
0100
,
1001
0100
1000
0100
0010
0100
1000
0010
,
1001
1000
1000
0010
0010
0100
0010
0001
,
1001
1000
0100
1010
0100
1000
1100
0100
,
0000
0001
0010
0100
1000
0100
0010
0100
,
0011
0000
0000
1010
0000
0000
0101
0000
0000
0000
0001
0000
1000
0000
0001
0000
,
0000
0100
0000
0000
0100
0000
1000
0000
0001
0000
0010
0000
0010
0000
1000
0000
,
1010
0000
0000
0101
0000
0000
0110
0000
0000
0000
1000
0000
0001
0000
0100
0000
,
1010
0100
0001
1000
0010
1000
0001
1000
,
0011
0000
1000
0000
0100
0000
0001
0000
0000
0000
1000
1000
0010
0000
0001
0000
,
1010
0001
1000
0010
0100
1000
0001
1000
,
1010
0001
1000
0101
1000
0010
0110
1000
,
0020
0000
0000
0000
0000
0000
2030
0000
0000
0000
0000
0000
0000
0000
3100
0010
,
0002
0000
0000
0000
0000
0000
0103
0000
0000
0000
0000
0000
0010
1000
1000
0000
,
0020
0000
0000
0000
0000
0000
0031
0000
0000
0000
0000
0000
1000
0000
0100
0001
,
0001
0000
0000
0010
0000
1000
0000
0001
0000
0000
0100
1000
0100
0010
0001
0010
,
0200
0000
0000
0001
0000
0000
0010
0000
2300
0000
0000
0010
0000
0000
0100
0000
,
3002
0000
0000
0010
0000
0000
1000
0000
0023
0000
0000
0100
0000
0000
1000
0000
,
2030
0000
0000
0000
0000
0000
0000
0000
3200
0000
0000
0000
0000
0000
0310
0010
,
1000
0002
0000
0000
0000
0000
0000
0000
0000
0000
0000
0000
0000
0003
0000
0000
,
1010
0100
1001
1010
0001
0100
1001
1010
,
1010
0100
0011
1010
0001
0100
0011
1010
,
0110
1000
0101
1100
0001
0110
1100
0001
,
1001
0100
0011
1001
0100
1001
0011
0100
,
0101
1000
0101
1100
0001
1100
1001
0010
,
0101
0000
1000
0000
1100
0000
0101
0000
0000
0000
0010
0010
1100
0000
0001
0000
,
1100
0001
0011
1100
0010
1010
0101
1010
,
1001
0001
1000
0101
1000
0010
0110
1000
,
0002
0000
0000
0000
0000
0000
0003
1000
,
0000
0000
0100
0000
0001
1000
0000
0000
,
0000
0000
0000
0000
2000
0000
0000
0000
0000
0000
0000
0000
0100
0010
0001
0010
,
0001
0010
0100
0010
0000
0100
0001
3100
,
0000
1000
0010
0001
0000
0100
0001
1000
,
0000
1000
0001
2000
0000
0000
0000
0000
,
3020
0000
0032
0000
,
2003
0000
0000
0000
,
0000
0000
0000
0000
,
3000
0000
0000
0000
;
